Y a-t-il Un Flic… – La trilogie (1988-1994)

6,00MTK

Reup 07/2021

Format : Iso (3 Disc)
Taille totale : 78.4 Go
Qualité : Full Blu-ray
Menu : Oui
Bonus : Non

Release : The Naked Gun Trilogy 1988 1994 1080p BluRay AVC DTS-HD MA 5.1

DISC INFO:

Disc Title: The Naked Gun: From the Files of Police Squad
Disc Size: 29,292,572,461 bytes
Protection: AACS
BD-Java: Yes
BDInfo: 0.5.8

Total Video
Title Codec Length Movie Size Disc Size Bitrate Bitrate Main Audio Track Secondary Audio Track

00800.MPLS AVC 1:25:01 28,781,899,776 29,292,572,461 45.13 36.95 DTS-HD Master 5.1 4186Kbps (48kHz/24-bit)

PLAYLIST REPORT:

Name: 00800.MPLS
Length: 1:25:01.846 (h:m:s.ms)
Size: 28,781,899,776 bytes
Total Bitrate: 45.13 Mbps

VIDEO:

Codec Bitrate
MPEG-4 AVC Video 36949 kbps 1080p / 23.976 fps / 16:9 / High Profile 4.1

AUDIO:

Codec Language Bitrate Description

DTS-HD Master Audio English 4186 kbps 5.1 / 48 kHz / 4186 kbps / 24-bit (DTS Core: 5.1 / 48 kHz / 1509 kbps / 24-bit)
Dolby Digital Audio German 224 kbps 2.0 / 48 kHz / 224 kbps / DN -4dB
Dolby Digital Audio Spanish 224 kbps 2.0 / 48 kHz / 224 kbps / DN -4dB
Dolby Digital Audio French 224 kbps 2.0 / 48 kHz / 224 kbps / DN -4dB
Dolby Digital Audio Italian 224 kbps 2.0 / 48 kHz / 224 kbps / DN -4dB
Dolby Digital Audio Japanese 224 kbps 2.0 / 48 kHz / 224 kbps / DN -4dB

SUBTITLES:

Codec Language Bitrate Description
Presentation Graphics Malay 37.750 kbps
Presentation Graphics Chinese 24.721 kbps
Presentation Graphics Danish 32.040 kbps
Presentation Graphics German 34.480 kbps
Presentation Graphics English 34.861 kbps
Presentation Graphics Spanish 34.461 kbps
Presentation Graphics French 30.683 kbps
Presentation Graphics Croatian 33.628 kbps
Presentation Graphics Italian 32.723 kbps
Presentation Graphics Japanese 22.147 kbps
Presentation Graphics Korean 16.901 kbps
Presentation Graphics Dutch 31.277 kbps
Presentation Graphics Norwegian 30.674 kbps
Presentation Graphics Romanian 32.994 kbps
Presentation Graphics Slovenian 26.431 kbps
Presentation Graphics Serbian 32.845 kbps
Presentation Graphics Finnish 33.985 kbps
Presentation Graphics Swedish 32.272 kbps
Presentation Graphics Thai 27.688 kbps
Presentation Graphics Turkish 34.512 kbps
Presentation Graphics Japanese 0.213 kbps

FILES:

Name Time In Length Size Total Bitrate
00800.M2TS 0:00:00.000 1:25:01.846 28,781,899,776 45,132

DISC INFO:

Disc Title: The Naked Gun 2Γö¼Γò£ The Smell of Fear
Disc Size: 28,371,003,151 bytes
Protection: AACS
BD-Java: Yes
BDInfo: 0.5.8

********************
PLAYLIST: 00800.MPLS
********************

Total Video
Title Codec Length Movie Size Disc Size Bitrate Bitrate Main Audio Track Secondary Audio Track

00800.MPLS AVC 1:25:06 27,851,065,344 28,371,003,151 43.64 34.98 DTS-HD Master 5.1 4107Kbps (48kHz/24-bit)

PLAYLIST REPORT:

Name: 00800.MPLS
Length: 1:25:06.101 (h:m:s.ms)
Size: 27,851,065,344 bytes
Total Bitrate: 43.64 Mbps

VIDEO:

Codec Bitrate
MPEG-4 AVC Video 34978 kbps 1080p / 23.976 fps / 16:9 / High Profile 4.1

AUDIO:

Codec Language
DTS-HD Master Audio English 4107 kbps 5.1 / 48 kHz / 4107 kbps / 24-bit (DTS Core: 5.1 / 48 kHz / 1509 kbps / 24-bit)
Dolby Digital Audio German 224 kbps 2.0 / 48 kHz / 224 kbps / DN -4dB
Dolby Digital Audio Spanish 224 kbps 2.0 / 48 kHz / 224 kbps / DN -4dB
Dolby Digital Audio Spanish 224 kbps 2.0 / 48 kHz / 224 kbps / DN -4dB
Dolby Digital Audio French 224 kbps 2.0 / 48 kHz / 224 kbps / DN -4dB
Dolby Digital Audio Italian 224 kbps 2.0 / 48 kHz / 224 kbps / DN -4dB
Dolby Digital Audio Japanese 224 kbps 2.0 / 48 kHz / 224 kbps / DN -4dB
Dolby Digital Audio Portuguese 224 kbps 2.0 / 48 kHz / 224 kbps / DN -4dB

SUBTITLES:

Codec Language
Presentation Graphics Malay 34.310 kbps
Presentation Graphics Chinese 28.077 kbps
Presentation Graphics Danish 30.949 kbps
Presentation Graphics German 40.299 kbps
Presentation Graphics English 36.526 kbps
Presentation Graphics Spanish 33.580 kbps
Presentation Graphics Spanish 38.657 kbps
Presentation Graphics French 31.916 kbps
Presentation Graphics Croatian 33.469 kbps
Presentation Graphics Italian 35.633 kbps
Presentation Graphics Japanese 27.835 kbps
Presentation Graphics Korean 25.721 kbps
Presentation Graphics Dutch 28.900 kbps
Presentation Graphics Norwegian 30.440 kbps
Presentation Graphics Portuguese 36.700 kbps
Presentation Graphics Romanian 34.257 kbps
Presentation Graphics Slovenian 29.428 kbps
Presentation Graphics Serbian 34.485 kbps
Presentation Graphics Finnish 31.017 kbps
Presentation Graphics Swedish 31.388 kbps
Presentation Graphics Thai 30.565 kbps
Presentation Graphics Turkish 36.962 kbps
Presentation Graphics English 41.548 kbps
Presentation Graphics Japanese 0.986 kbps

FILES:

Name Time In Length Size
00800.M2TS 0:00:00.000 1:25:06.101 27,851,065,344 43,636

DISC INFO:

Disc Title: Naked Gun 33 1/3 The Final Insult
Disc Size: 26,444,960,245 bytes
Protection: AACS
BD-Java: Yes
BDInfo: 0.5.8

********************
PLAYLIST: 00800.MPLS
********************

Total Video
Title Codec Length Movie Size Disc Size Bitrate Bitrate Main Audio Track Secondary Audio Track

00800.MPLS AVC 1:22:36 25,940,330,496 26,444,960,245 41.87 34.94 DTS-HD Master 5.1 2398Kbps (48kHz/24-bit)

PLAYLIST REPORT:

Name: 00800.MPLS
Length: 1:22:36.201 (h:m:s.ms)
Size: 25,940,330,496 bytes
Total Bitrate: 41.87 Mbps

VIDEO:

MPEG-4 AVC Video 34940 kbps 1080p / 23.976 fps / 16:9 / High Profile 4.1

AUDIO:

DTS-HD Master Audio English 2398 kbps 5.1 / 48 kHz / 2398 kbps / 24-bit (DTS Core: 5.1 / 48 kHz / 1509 kbps / 24-bit)
Dolby Digital Audio German 224 kbps 2.0 / 48 kHz / 224 kbps / DN -4dB
Dolby Digital Audio Spanish 224 kbps 2.0 / 48 kHz / 224 kbps / DN -4dB
Dolby Digital Audio Spanish 224 kbps 2.0 / 48 kHz / 224 kbps / DN -4dB
Dolby Digital Audio French 224 kbps 2.0 / 48 kHz / 224 kbps / DN -4dB
Dolby Digital Audio Italian 224 kbps 2.0 / 48 kHz / 224 kbps / DN -4dB
Dolby Digital Audio Japanese 224 kbps 2.0 / 48 kHz / 224 kbps / DN -4dB
Dolby Digital Audio Portuguese 224 kbps 2.0 / 48 kHz / 224 kbps / DN -4dB

SUBTITLES:
Presentation Graphics Malay 40.843 kbps
Presentation Graphics Chinese 30.099 kbps
Presentation Graphics Danish 36.701 kbps
Presentation Graphics German 39.812 kbps
Presentation Graphics English 35.569 kbps
Presentation Graphics Spanish 39.780 kbps
Presentation Graphics Spanish 38.127 kbps
Presentation Graphics French 34.571 kbps
Presentation Graphics Croatian 39.261 kbps
Presentation Graphics Italian 38.574 kbps
Presentation Graphics Japanese 23.413 kbps
Presentation Graphics Korean 21.680 kbps
Presentation Graphics Dutch 31.737 kbps
Presentation Graphics Norwegian 36.329 kbps
Presentation Graphics Portuguese 38.261 kbps
Presentation Graphics Romanian 35.969 kbps
Presentation Graphics Slovenian 35.425 kbps
Presentation Graphics Serbian 34.201 kbps
Presentation Graphics Finnish 38.309 kbps
Presentation Graphics Swedish 34.074 kbps
Presentation Graphics Thai 34.559 kbps
Presentation Graphics Turkish 39.857 kbps
Presentation Graphics English 40.444 kbps
Presentation Graphics Japanese 0.967 kbps

FILES:

Name Time In Length Size Total Bitrate
—- ——- —— —- ————-
00800.M2TS 0:00:00.000 1:22:36.201 25,940,330,496 41,871

Catégories : , ,

Description

Contient :
– Y a-t-il un flic pour sauver la reine ?
– Y a-t-il un flic pour sauver le président ?
– Y a-t-il un flic pour sauver Hollywood ?

Le lieutenant Frank Drebin est le M. catastrophes de la police de Los Angeles. Que ce soit pour protéger la Reine d’Angleterre, le Président des États-Unis, ou encore la cérémonie des Oscars… ses missions ne se déroulent jamais vraiment comme prévues…

Acteurs : Leslie Nielsen, Priscilla Presley, Ricardo Montalban, George Kennedy, O.J. Simpson
Réalisateurs : David Zucker, Peter Segal
Coréen, Français, Néerlandais, Norvégien
Région : Toutes les régions
Nombre de disques : 3
Studio : Paramount Pictures
Date de sortie du DVD : 11 septembre 2013
Durée : 242 minutes

Avis

Il n’y a pas encore d’avis.

Soyez le premier à laisser votre avis sur “Y a-t-il Un Flic… – La trilogie (1988-1994)”