Paranormal Activity 3 (2011)

2,00MTK

Reup 04/2021

Format : Iso

Qualité : Full Blu-ray

DISC INFO:

Disc Title: Paranormal Activity 3
Disc Label: Paranormal Activity 3.2011.Multi.Complete.Blu-ray.AVC
Disc Size: 30,099,577,182 bytes
Protection: AACS
Extras: BD-Java
BDInfo: 0.7.5.5

PLAYLIST REPORT:

Name: 00002.MPLS
Length: 1:33:59.049 (h:m:s.ms)
Size: 27,606,208,512 bytes
Total Bitrate: 39.16 Mbps

VIDEO:

Codec Bitrate Description
—– ——- ———–
MPEG-4 AVC Video 30562 kbps 1080p / 23.976 fps / 16:9 / High Profile 4.1

AUDIO:

Codec Language Bitrate Description
—– ——– ——- ———–
DTS-HD Master Audio English 2896 kbps 5.1 / 48 kHz / 2896 kbps / 24-bit (DTS Core: 5.1 / 48 kHz / 1509 kbps / 24-bit)
Dolby Digital Audio French 640 kbps 5.1 / 48 kHz / 640 kbps / DN -27dB
Dolby Digital Audio German 640 kbps 5.1 / 48 kHz / 640 kbps / DN -27dB
Dolby Digital Audio Italian 640 kbps 5.1 / 48 kHz / 640 kbps / DN -27dB
Dolby Digital Audio Spanish 640 kbps 5.1 / 48 kHz / 640 kbps / DN -27dB
Dolby Digital Audio English 640 kbps 5.1 / 48 kHz / 640 kbps / DN -27dB

SUBTITLES:

Codec Language Bitrate Description
—– ——– ——- ———–
Presentation Graphics English 31.265 kbps
Presentation Graphics English 40.219 kbps
Presentation Graphics French 21.489 kbps
Presentation Graphics German 31.793 kbps
Presentation Graphics Italian 25.424 kbps
Presentation Graphics Spanish 26.261 kbps
Presentation Graphics Dutch 20.797 kbps
Presentation Graphics Danish 24.454 kbps
Presentation Graphics Finnish 27.809 kbps
Presentation Graphics Norwegian 21.854 kbps
Presentation Graphics Swedish 24.253 kbps

FILES:

Name Time In Length Size Total Bitrate
—- ——- —— —- ————-
00352.M2TS 0:00:00.000 0:05:17.442 1,620,891,648 40,849
00363.M2TS 0:05:17.442 0:02:58.720 915,351,552 40,974
00354.M2TS 0:08:16.162 0:21:13.480 6,455,955,456 40,556
00364.M2TS 0:29:29.642 0:03:24.913 1,035,024,384 40,408
00356.M2TS 0:32:54.555 0:05:42.550 1,734,924,288 40,518
00365.M2TS 0:38:37.106 0:02:03.039 628,113,408 40,840
00358.M2TS 0:40:40.145 0:05:37.211 1,709,082,624 40,546
00366.M2TS 0:46:17.357 0:00:48.840 245,987,328 40,292
00360.M2TS 0:47:06.198 0:05:40.548 1,713,899,520 40,262
00367.M2TS 0:52:46.746 0:03:55.235 1,184,956,416 40,299
00362.M2TS 0:56:41.981 0:37:17.068 10,362,021,888 37,056

Description

Les origines des phénomènes paranormaux qui poursuivent la jeune Kate, à travers un prequel qui revient sur sa jeunesse…

Genres Epouvante-horreur, Fantastique
Durée 01h 24min
Date de sortie 2011-10-19
Réalisateur Henry Joost, Ariel Schulman
Nationalité U.S.A.
Titre original Paranormal Activity 3

 

Titre : Paranormal Activity 3

Synopsis : In 1988, young sisters Katie and Kristi befriend an invisible entity who resides in their home.

Informations sur la sortie : 2011-10-19

Note : 5.91/10

Avis

Il n’y a pas encore d’avis.

Soyez le premier à laisser votre avis sur “Paranormal Activity 3 (2011)”