Paranormal Activity 2 (2010)

2,00MTK

Reup 04/2021

Format : Iso

Qualité : Full Blu-ray

DISC INFO:

Disc Title: Paranormal Activity 2
Disc Label: Paranormal Activity 2.2010.Multi.Complete.Blu-ray.AVC
Disc Size: 30,101,772,394 bytes
Protection: AACS
Extras: BD-Java
BDInfo: 0.7.5.5

PLAYLIST REPORT:

Name: 00001.MPLS
Length: 1:38:03.919 (h:m:s.ms)
Size: 27,955,138,560 bytes
Total Bitrate: 38.01 Mbps

VIDEO:

Codec Bitrate Description
—– ——- ———–
MPEG-4 AVC Video 29147 kbps 1080p / 23.976 fps / 16:9 / High Profile 4.1

AUDIO:

Codec Language Bitrate Description
—– ——– ——- ———–
Dolby Digital Audio German 640 kbps 5.1 / 48 kHz / 640 kbps / DN -27dB
DTS-HD Master Audio English 3102 kbps 5.1 / 48 kHz / 3102 kbps / 24-bit (DTS Core: 5.1 / 48 kHz / 1509 kbps / 24-bit)
Dolby Digital Audio English 640 kbps 5.1 / 48 kHz / 640 kbps / DN -27dB
Dolby Digital Audio Spanish 640 kbps 5.1 / 48 kHz / 640 kbps / DN -27dB
Dolby Digital Audio French 640 kbps 5.1 / 48 kHz / 640 kbps / DN -27dB
Dolby Digital Audio Italian 640 kbps 5.1 / 48 kHz / 640 kbps / DN -27dB

SUBTITLES:

Codec Language Bitrate Description
—– ——– ——- ———–
Presentation Graphics Danish 35.875 kbps
Presentation Graphics German 41.636 kbps
Presentation Graphics English 42.066 kbps
Presentation Graphics Spanish 40.000 kbps
Presentation Graphics French 29.455 kbps
Presentation Graphics Italian 38.266 kbps
Presentation Graphics Dutch 24.521 kbps
Presentation Graphics Norwegian 26.628 kbps
Presentation Graphics Finnish 24.736 kbps
Presentation Graphics Swedish 32.077 kbps
Presentation Graphics English 53.005 kbps
Presentation Graphics German 0.875 kbps
Presentation Graphics Spanish 0.001 kbps
Presentation Graphics French 0.741 kbps
Presentation Graphics Italian 0.819 kbps

FILES:

Name Time In Length Size Total Bitrate
—- ——- —— —- ————-
00381.M2TS 0:00:00.000 0:01:59.661 585,566,208 39,148
00390.M2TS 0:01:59.661 0:02:50.420 829,526,016 38,940
00383.M2TS 0:04:50.081 0:05:10.226 1,513,119,744 39,020
00391.M2TS 0:10:00.308 0:00:48.423 236,525,568 39,076
00384.M2TS 0:10:48.731 0:09:50.506 2,873,763,840 38,933
00392.M2TS 0:20:39.237 0:01:19.412 382,722,048 38,555
00385.M2TS 0:21:58.650 0:14:31.495 4,251,770,880 39,030
00393.M2TS 0:36:30.146 0:02:20.890 684,453,888 38,864
00386.M2TS 0:38:51.036 0:05:05.972 1,498,767,360 39,187
00394.M2TS 0:43:57.009 0:01:36.513 470,753,280 39,021
00387.M2TS 0:45:33.522 0:11:54.797 3,480,815,616 38,957
00395.M2TS 0:57:28.319 0:00:43.960 213,872,640 38,921
00388.M2TS 0:58:12.280 0:34:21.684 10,013,835,264 38,857
00389.M2TS 1:32:33.964 0:05:29.954 919,646,208 22,298

Description

L’esprit démoniaque du premier Paranormal Activity est de retour, et c’est une nouvelle famille fraîchement installée dans une belle demeure qui va en faire les frais…

Genres Epouvante-horreur
Durée 01h 31min
Date de sortie 2010-10-20
Réalisateur Tod Williams
Nationalité U.S.A.
Titre original Paranormal Activity 2

 

Titre : Paranormal Activity 2

Synopsis : Days after welcoming a newborn baby, Dan and Kristi Rey return home one day to find their house ransacked with seemingly no explanation. Their fear forces them to put in security cameras, which begin to capture strange activity around the house.

Informations sur la sortie : 2010-10-20

Note : 5.742/10

Avis

Il n’y a pas encore d’avis.

Soyez le premier à laisser votre avis sur “Paranormal Activity 2 (2010)”