La Vérité (1960) – Version Restaurée 4k

2,00MTK

Reup 09/2021

Format : Iso

Qualité : Full Blu-ray

Coffret Digibook prestige numéroté et limité à 3.000 exemplaires.
NOUVELLE RESTAURATION 4K À PARTIR DU NÉGATIF ORIGINAL PAR SONY PICTURES ENTERTAINMENT AVEC LA PARTICIPATION DE THE FILM FOUNDATION ET RT FEATURES.

Coin de mire

Disc Title: La.Verite.1960.RESTORED.4K.VOF.1080p.BluRay.AVC.DTS.HD.MA.2.0
Disc Size: 49.393.265.179 bytes
Protection: AACS
BD-Java: No
BDInfo: 0.5.8

PLAYLIST REPORT:

Name: 00000.MPLS
Length: 2:08:05.000 (h:m:s.ms)
Size: 31.986.610.176 bytes
Total Bitrate: 33,30 Mbps

VIDEO:

Codec Bitrate Description
—– ——- ———–
MPEG-4 AVC Video 30003 kbps 1080p / 24 fps / 16:9 / High Profile 4.1

AUDIO:

Codec Language Bitrate Description
—– ——– ——- ———–
DTS-HD Master Audio French 1559 kbps 2.0 / 48 kHz / 1559 kbps / 16-bit (DTS Core: 2.0 / 48 kHz / 1509 kbps / 16-bit)

SUBTITLES:

Codec Language Bitrate Description
—– ——– ——- ———–
Presentation Graphics French 42,726 kbps

FILES:

Name Time In Length Size Total Bitrate
—- ——- —— —- ————-
00007.M2TS 0:00:00.000 0:00:09.083 1.665.024 1.466
00001.M2TS 0:00:09.083 0:00:32.916 114.923.520 27.931
00000.M2TS 0:00:42.000 2:07:23.000 31.870.021.632 33.359

Contenu additionnel :

Une séance de cinéma complète avec les actualités d’époques, les réclames publicitaires d’époque, les films annonces

Le scandale Clouzot, un documentaire de soixante minutes de 2017 sur le réalisateur Henri-Georges Clouzot

Catégories : ,

Description

Dominique comparaît aux assises pour le meurtre de son amant, Gilbert, fiancé de sa soeur Annie. Elle doit se battre contre l’avocat, qui tente de ternir, contre son gré, la mémoire de Gilbert, et contre le procureur, qui essaie de la faire passer pour un monstre sans coeur aux yeux du jury… .
2 novembre 1960 en salle / 2h 07min / Drame
Date de reprise 8 novembre 2017
De Henri-Georges Clouzot
Par Michèle Perrein, Jérôme Geronimi
Avec Brigitte Bardot, Paul Meurisse, Charles Vanel

Titre : La Vérité

Synopsis : As Dominique Marceau is being tried for the murder of Gilbert Tellier, accounts by different witnesses paint a picture of the kind of relationship the two used to share.

Informations sur la sortie : 1960-11-02

Note : 7.648/10

Avis

Il n’y a pas encore d’avis.

Soyez le premier à laisser votre avis sur “La Vérité (1960) – Version Restaurée 4k”