Des pissenlits par la racine (1964) – Restauration 4K 2020

3,00MTK

Reup 07/2021

Blu-ray FRA – Édition 2020 Coin de Mire Cinéma

NOUVELLE RESTAURATION 4K 2020 À PARTIR DU NÉGATIF ORIGINAL PAR TF1 STUDIO AVEC LA PARTICIPATION DE COIN DE MIRE CINEMA.

DISC INFO:

Disc Title: Des.pissenlits.par.la.racine.1964.RESTORED.4K.VOF.1080p.BluRay.AVC.DTS.HD.MA.2.0-HDF
Disc Size: 40.813.211.746 bytes
Protection: AACS
BD-Java: No
BDInfo: 0.5.8

PLAYLIST REPORT:

Name: 00009.MPLS
Length: 1:55:25.291 (h:m:s.ms)
Size: 28.762.392.576 bytes
Total Bitrate: 33,23 Mbps

VIDEO:

Codec Bitrate Description
—– ——- ———–
MPEG-4 AVC Video 29934 kbps 1080p / 24 fps / 16:9 / High Profile 4.1

AUDIO:

Codec Language Bitrate Description
—– ——– ——- ———–
DTS-HD Master Audio French 1569 kbps 2.0 / 48 kHz / 1569 kbps / 16-bit (DTS Core: 2.0 / 48 kHz / 1509 kbps / 16-bit)

SUBTITLES:

Codec Language Bitrate Description
—– ——– ——- ———–
Presentation Graphics French 32,270 kbps

FILES:

Name Time In Length Size Total Bitrate
—- ——- —— —- ————-
00006.M2TS 0:00:00.000 0:00:01.000 24.576 197
00007.M2TS 0:00:01.000 0:00:09.083 1.665.024 1.466
00003.M2TS 0:00:10.083 0:09:14.541 2.318.764.032 33.451
00013.M2TS 0:09:24.625 0:03:38.916 911.333.376 33.303
00004.M2TS 0:13:03.541 0:06:05.250 1.531.625.472 33.547
00000.M2TS 0:19:08.791 1:36:16.500 23.998.980.096 33.237

Catégories : ,

Description

Plusieurs personnes recherchent désespérément un ticket de courses. Mais ce dernier est dans la poche d’un cadavre, lui même caché dans un étui de contrebasse.

6 mai 1964 / 1h 35min / Comédie
De Georges Lautner
Avec Louis de Funès, Michel Serrault, Mireille Darc
Nationalités italien, français

Titre : Dandelions by the Roots

Synopsis : Jockey Jack has a bill open with a gangster just released from jail. He somehow manages to parry the gangster's knife attack backstage at a theatre and the latter ends up dead being put into a double bass case. A day later the gangster mysteriously has disappeared, but it turns out that he was carrying a bet ticket for a horse race now worth over a million. A turbulent run for the money begins.

Informations sur la sortie : 1964-05-06

Note : 5.4/10

Avis

Il n’y a pas encore d’avis.

Soyez le premier à laisser votre avis sur “Des pissenlits par la racine (1964) – Restauration 4K 2020”